1. OUR PREMIUMS

    ZbigZ  Offcloud  Bytebx  Zenmate  Bitport.io
  2. NOW GET PAID FOR POSTING THREADS

    Click Here for More Info
    Dismiss Notice

TVF Permanent Roommates Season 02 WEBRip 720p x265 HEVC AAC

Discussion in 'Videos' started by ★ iamPK ★, May 3, 2016.

  1. ★ iamPK ★

    ★ iamPK ★ ★adмιnιѕтraтor★

    Joined:
    Jul 25, 2015
    Messages:
    121
    Likes Received:
    169
    Trophy Points:
    49
    Gender:
    Male
    Occupation:
    Student
    Location:
    India
    TVF Permanent Roommates Season 02 WEBRip 720p x265 HEVC AAC

    [​IMG]


    [​IMG]


    Nidhi Singh ... Tanya (7 episodes, 2014-2016)
    Sumeet Vyas ... Mikesh Chaudhary (7 episodes, 2014-2016)
    Deepak Kumar Mishra ... Purushottam (5 episodes, 2014-2016)


    A couple, who were in a long distance relationship for 3 years, face the prospect of getting married.

    General

    Complete name : TVF Permanent Roommates S02E01 (The Parents) WEBRip 720p x265 HEVC AAC

    Format : Matroska
    Format version : Version 4 / Version 2
    File size : 173 MiB
    Duration : 36mn 27s
    Overall bit rate : 663 Kbps
    Writing application : mkvmerge v8.8.0 ('Wind at my back') 64bit
    Writing library : libebml v1.3.3 + libmatroska v1.4.4

    Video

    Format : HEVC
    Format/Info : High Efficiency Video Coding
    Codec ID : V_MPEGH/ISO/HEVC
    Bit rate : 581 Kbps
    Width : 1 280 pixels
    Height : 720 pixels
    Display aspect ratio : 16:9
    Frame rate mode : Constant
    Frame rate : 25.000 fps
    Color space : YUV
    Chroma subsampling : 4:2:0
    Bit depth : 8 bits
    Stream size : 151 MiB (88%)
    Writing library : x265 1.9+3-548a45bbf223:[Windows][ICC 1600][64 bit] 8bit

    Audio

    Format : AAC
    Format/Info : Advanced Audio Codec
    Format profile : HE-AAC / LC
    Codec ID : A_AAC
    Bit rate : 80.0 Kbps
    Channel(s) : 2 channels
    Channel positions : Front: L R
    Sampling rate : 44.1 KHz / 22.05 KHz
    Compression mode : Lossy
    Stream size : 20.9 MiB (12%)

    Hidden Content:
    **Hidden Content: You must click 'Like' before you can see the hidden data contained here.**

     
Loading...